티스토리 툴바


영화/한화2014/04/19 05:13

 

 

요약정보 : 판타지, 스릴러 | 한국 | 100 분 | 개봉 2014-03-20

 

감독 : 김준권 

 

배우 : 이승준, 김홍파, 권남희

 

 

누군가에겐 마지막 운명이 될 한 판이 시작된다!

목장에선 매일같이 고스톱판이 벌어진다.
멤버는 목장청년 상이(이승준 분), 안교수(김홍파 분), 최여사(권남희 분), 목장주인 김씨(송영재 분) 이렇게 4명.
어느 날, 수학과 교수인 안교수가 놓고 간 수첩을 우연히 보게 된 상이는
수첩에서 이상한 숫자들을 발견하게 되고, 안교수의 뒤를 밟기 시작한다.
그리고 안교수에게서 믿을 수 없는 비밀을 듣게 된다.

최여사 패에 누군가의 주민번호 13자리로 뜨면 그 주민번호의 당사자가 죽는다는 놀라운 살인비밀…
그것도 타살이 아닌 자연사 한다는 것.
이 사실을 알게 된 상이에게 안교수는 놀랄만한 제안을 하는데…
상이 역시 그 비밀의 룰로 자신만의 복수를 꿈꾼다.

판에서 이 룰을 아는 사람은 단 두 명뿐!
패가 뜨고 스톱을 외치면 반드시 누군가 죽는다. 그리고 또 다시 패는 돌아간다.

 

 

General
Complete name                  : Go.Stop.Murder.2013.HDRip.DivX-PRiDAiLY.avi
Format                         : AVI
Format/Info                    : Audio Video Interleave
File size                      : 963 MiB
Duration                       : 1h 39mn
Overall bit rate               : 1 347 Kbps
Writing application            : PotEncoder

Video
ID                             : 0
Format                         : MPEG-4 Visual
Format profile                 : Simple@L1
Format settings, BVOP          : No
Format settings, QPel          : No
Format settings, GMC           : No warppoints
Format settings, Matrix        : Default (H.263)
Codec ID                       : DIVX
Codec ID/Info                  : Project Mayo
Codec ID/Hint                  : DivX 4
Duration                       : 1h 39mn
Bit rate                       : 1 239 Kbps
Width                          : 800 pixels
Height                         : 480 pixels
Display aspect ratio           : 1.667
Frame rate                     : 24.000 fps
Color space                    : YUV
Chroma subsampling             : 4:2:0
Bit depth                      : 8 bits
Scan type                      : Progressive
Compression mode               : Lossy
Bits/(Pixel*Frame)             : 0.134
Stream size                    : 885 MiB (92%)
Writing library                : Lavc52.108.0

Audio
ID                             : 1
Format                         : MPEG Audio
Format version                 : Version 1
Format profile                 : Layer 3
Mode                           : Joint stereo
Mode extension                 : MS Stereo
Codec ID                       : 55
Codec ID/Hint                  : MP3
Duration                       : 1h 39mn
Bit rate mode                  : Constant
Bit rate                       : 96.0 Kbps
Channel(s)                     : 2 channels
Sampling rate                  : 44.1 KHz
Compression mode               : Lossy
Stream size                    : 68.6 MiB (7%)
Alignment                      : Aligned on interleaves
Interleave, duration           : 26 ms (0.63 video frame)
Writing library                : LAME3.98.2

저작자 표시 비영리 변경 금지
Posted by - JiNY -